Mediainfo rar Example

From Lundman Wiki
Revision as of 12:05, 7 January 2011 by Lundman (talk | contribs)

(diff) ← Older revision | Latest revision (diff) | Newer revision → (diff)
Jump to: navigation, search
# ./mediainfo-rar ~/ftp/data/tmp/incoming/Robot.Chicken.S04E01.PDTV.XviD-aAF/aaf-robot.chicken.s04e01.pdtv.rar

Welcome to libmediainfo-rar
Guessing RAR file is in use
[llrar] parsed name 'aaf-robot.chicken.s04e01.pdtv.avi'
Checking 'aaf-robot.chicken.s04e01.pdtv.avi' == '*'
I got size 102983680 and firstname 'aaf-robot.chicken.s04e01.pdtv.avi'
running: ./unrar p -inul -c- -p- -y -cfg- -- "/Users/lundman/ftp/data/tmp/incoming/Robot.Chicken.S04E01.PDTV.XviD-aAF/aaf-robot.chicken.s04e01.pdtv.rar" "aaf-robot.chicken.s04e01.pdtv.avi"
running: ./unrar p -inul -c- -p- -y -cfg- -sk102199912 -- "/Users/lundman/ftp/data/tmp/incoming/Robot.Chicken.S04E01.PDTV.XviD-aAF/aaf-robot.chicken.s04e01.pdtv.rar" "aaf-robot.chicken.s04e01.pdtv.avi"
running: ./unrar p -inul -c- -p- -y -cfg- -sk10252 -- "/Users/lundman/ftp/data/tmp/incoming/Robot.Chicken.S04E01.PDTV.XviD-aAF/aaf-robot.chicken.s04e01.pdtv.rar" "aaf-robot.chicken.s04e01.pdtv.avi"
Filename                         : /Users/lundman/ftp/data/tmp/incoming/Robot.Chicken.S04E01.PDTV.XviD-aAF/aaf-robot.chicken.s04e01.pdtv.rar
Media name                       : aaf-robot.chicken.s04e01.pdtv.avi
llink URL                        : /Users/lundman/ftp/data/tmp/incoming/Robot.Chicken.S04E01.PDTV.XviD-aAF/aaf-robot.chicken.s04e01.pdtv.rar?f=102983680,aaf-robot.chicken.s04e01.pdtv.avi
File size                        : 102983680

General
Format                           : AVI
Format/Info                      : Audio Video Interleave
File size                        : 98.2 MiB
Duration                         : 11mn 23s
Overall bit rate                 : 1 205 Kbps
Writing application              : Nandub v1.0rc2
Writing library                  : Nandub build 1853/release

Video
ID                               : 0
Format                           : MPEG-4 Visual
Format profile                   : Advanced Simple@L5
Format settings, BVOP            : Yes
Format settings, QPel            : No
Format settings, GMC             : No warppoints
Format settings, Matrix          : Default (H.263)
Codec ID                         : XVID
Codec ID/Hint                    : XviD
Duration                         : 11mn 23s
Bit rate                         : 1 082 Kbps
Width                            : 512 pixels
Height                           : 384 pixels
Display aspect ratio             : 4:3
Frame rate                       : 29.970 fps
Color space                      : YUV
Chroma subsampling               : 4:2:0
Bit depth                        : 8 bits
Scan type                        : Progressive
Compression mode                 : Lossy
Bits/(Pixel*Frame)               : 0.184
Stream size                      : 88.2 MiB (90%)
Writing library                  : XviD 1.2.0.dev47 (UTC 2006-11-01)

Audio
ID                               : 1
Format                           : MPEG Audio
Format version                   : Version 1
Format profile                   : Layer 3
Mode                             : Joint stereo
Mode extension                   : MS Stereo
Codec ID                         : 55
Codec ID/Hint                    : MP3
Duration                         : 11mn 23s
Bit rate mode                    : Variable
Bit rate                         : 108 Kbps
Nominal bit rate                 : 128 Kbps
Channel(s)                       : 2 channels
Sampling rate                    : 48.0 KHz
Compression mode                 : Lossy
Stream size                      : 8.83 MiB (9%)
Alignment                        : Aligned on interleaves
Interleave, duration             : 24 ms (0.72 video frame)
Interleave, preload duration     : 478 ms
Writing library                  : LAME3.98 
Encoding settings                : -m j -V 4 -q 2 -lowpass 17 --abr 128